<?xml version="1.0" standalone="no"?>
<!DOCTYPE svg PUBLIC "-//W3C//DTD SVG 1.1//EN" "http://www.w3.org/Graphics/SVG/1.1/DTD/svg11.dtd" >
<svg xmlns="http://www.w3.org/2000/svg">
<metadata>Generated by IcoMoon</metadata>
<defs>
<font id="icomoon" horiz-adv-x="1024">
<font-face units-per-em="1024" ascent="960" descent="-64" />
<missing-glyph horiz-adv-x="1024" />
<glyph unicode="&#x20;" horiz-adv-x="512" d="" />
<glyph unicode="&#xe900;" glyph-name="calendar" d="M306.573 416c0 18.85 15.282 34.133 34.133 34.133h0.427c18.851 0 34.133-15.283 34.133-34.133s-15.282-34.133-34.133-34.133h-0.427c-18.851 0-34.133 15.283-34.133 34.133zM340.706 279.467c-18.851 0-34.133-15.283-34.133-34.133s15.282-34.133 34.133-34.133h0.427c18.851 0 34.133 15.283 34.133 34.133s-15.282 34.133-34.133 34.133h-0.427zM477.658 416c0 18.85 15.283 34.133 34.133 34.133h0.427c18.85 0 34.133-15.283 34.133-34.133s-15.283-34.133-34.133-34.133h-0.427c-18.85 0-34.133 15.283-34.133 34.133zM511.791 279.467c-18.85 0-34.133-15.283-34.133-34.133s15.283-34.133 34.133-34.133h0.427c18.85 0 34.133 15.283 34.133 34.133s-15.283 34.133-34.133 34.133h-0.427zM648.738 416c0 18.85 15.283 34.133 34.133 34.133h0.427c18.85 0 34.133-15.283 34.133-34.133s-15.283-34.133-34.133-34.133h-0.427c-18.85 0-34.133 15.283-34.133 34.133zM682.871 279.467c-18.85 0-34.133-15.283-34.133-34.133s15.283-34.133 34.133-34.133h0.427c18.85 0 34.133 15.283 34.133 34.133s-15.283 34.133-34.133 34.133h-0.427zM373.333 842.667c0 17.673-14.327 32-32 32s-32-14.327-32-32v-42.667h-74.667c-53.019 0-96-42.981-96-96v-554.667c0-53.018 42.981-96 96-96h554.667c53.018 0 96 42.982 96 96v554.667c0 53.019-42.982 96-96 96h-74.667v42.667c0 17.673-14.327 32-32 32s-32-14.327-32-32v-42.667h-277.333v42.667zM821.333 608h-618.667v96c0 17.673 14.327 32 32 32h554.667c17.673 0 32-14.327 32-32v-96zM202.667 544h618.667v-394.667c0-17.673-14.327-32-32-32h-554.667c-17.673 0-32 14.327-32 32v394.667z" />
<glyph unicode="&#xe901;" glyph-name="card" d="M291.708 539.247c0 38.086 30.875 68.961 68.961 68.961s68.963-30.875 68.963-68.961c0-38.084-30.876-68.962-68.963-68.962s-68.961 30.878-68.961 68.962zM308.879 444.292c-52.745 0-95.504-42.761-95.504-95.505v-39.689c0-17.673 14.327-32 32-32h230.614c17.673 0 32 14.327 32 32v39.689c0 52.745-42.756 95.505-95.503 95.505h-103.608zM277.375 348.787c0 17.399 14.105 31.505 31.504 31.505h103.608c17.397 0 31.503-14.106 31.503-31.505v-7.689h-166.614v7.689zM810.684 511.957c0-17.673-14.327-32-32-32h-174.933c-17.673 0-32 14.327-32 32s14.327 32.001 32 32.001h174.933c17.673 0 32-14.328 32-32.001zM689.105 351.957c17.673 0 32 14.327 32 32s-14.327 32-32 32h-85.333c-17.673 0-32-14.327-32-32s14.327-32 32-32h85.333zM181.333 767.958c-53.019 0-96-42.981-96-96v-448.001c0-53.018 42.981-96 96-96h661.333c53.018 0 96 42.982 96 96v448.001c0 53.019-42.982 96-96 96h-661.333zM149.333 671.958c0 17.673 14.327 32 32 32h661.333c17.673 0 32-14.327 32-32v-448.001c0-17.673-14.327-32-32-32h-661.333c-17.673 0-32 14.327-32 32v448.001z" />
<glyph unicode="&#xe902;" glyph-name="check" d="M822.626 671.461c12.497-12.497 12.497-32.758 0-45.255l-401.784-401.788c-12.497-12.493-32.758-12.493-45.255 0l-174.214 174.217c-12.497 12.497-12.497 32.759 0 45.257 12.497 12.493 32.758 12.493 45.255 0l151.587-151.59 379.159 379.16c12.497 12.497 32.755 12.497 45.252 0z" />
<glyph unicode="&#xe903;" glyph-name="chevron-down" horiz-adv-x="1067" d="M236.706 571.961c12.497 12.497 32.758 12.497 45.255 0l244.038-244.038 244.041 244.038c12.497 12.497 32.759 12.497 45.257 0 12.493-12.497 12.493-32.758 0-45.254l-266.667-266.667c-12.497-12.497-32.759-12.497-45.257 0l-266.667 266.667c-12.497 12.495-12.497 32.757 0 45.254z" />
<glyph unicode="&#xe904;" glyph-name="email" d="M938.667 693.056v-469.056c0-53.018-42.982-96-96-96h-661.333c-53.019 0-96 42.982-96 96v470.017c0 0.438 0.009 0.874 0.026 1.307 0.734 40.261 33.6 72.676 74.040 72.676h705.215c40.896 0 74.052-33.151 74.057-74.048 0-0.299 0-0.597-0.004-0.896zM149.333 610.688v-386.688c0-17.673 14.327-32 32-32h661.333c17.673 0 32 14.327 32 32v386.668l-307.742-214.598c-32.99-23.006-76.83-23.006-109.82 0l-307.772 214.618zM874.667 694.246c-0.158 5.414-4.599 9.754-10.052 9.754h-705.215c-5.553 0-10.054-4.503-10.052-10.056 0.001-3.285 1.608-6.363 4.303-8.242l340.059-237.135c10.999-7.667 25.613-7.667 36.608 0l340.049 237.126c2.611 1.818 4.198 4.758 4.301 7.923v0.63z" />
<glyph unicode="&#xe905;" glyph-name="hamburgerMenu" d="M85.333 874.667h853.333c23.564 0 42.667-19.103 42.667-42.667s-19.103-42.667-42.667-42.667h-853.333c-23.564 0-42.667 19.103-42.667 42.667s19.103 42.667 42.667 42.667zM85.333 490.667h853.333c23.564 0 42.667-19.103 42.667-42.667s-19.103-42.667-42.667-42.667h-853.333c-23.564 0-42.667 19.103-42.667 42.667s19.103 42.667 42.667 42.667zM85.333 106.667h597.333c23.564 0 42.667-19.103 42.667-42.667s-19.103-42.667-42.667-42.667h-597.333c-23.564 0-42.667 19.103-42.667 42.667s19.103 42.667 42.667 42.667z" />
<glyph unicode="&#xe906;" glyph-name="info-circle" d="M512 874.667c-235.642 0-426.667-191.025-426.667-426.667 0-235.639 191.025-426.667 426.667-426.667 235.639 0 426.667 191.027 426.667 426.667 0 235.642-191.027 426.667-426.667 426.667zM149.333 448c0 200.295 162.371 362.667 362.667 362.667s362.667-162.371 362.667-362.667c0-200.294-162.372-362.667-362.667-362.667s-362.667 162.372-362.667 362.667zM554.667 618.667c0-23.564-19.103-42.667-42.667-42.667s-42.667 19.103-42.667 42.667c0 23.564 19.103 42.667 42.667 42.667s42.667-19.103 42.667-42.667zM469.333 490.667c0 23.565 19.102 42.667 42.667 42.667s42.667-19.102 42.667-42.667v-213.333c0-23.565-19.102-42.667-42.667-42.667s-42.667 19.102-42.667 42.667v213.333z" />
<glyph unicode="&#xe907;" glyph-name="lock" d="M544 298.667c0 17.673-14.327 32-32 32s-32-14.327-32-32v-85.333c0-17.673 14.327-32 32-32s32 14.327 32 32v85.333zM512 906.667c-111.93 0-202.667-90.737-202.667-202.667v-115.013c-71.627-58.683-117.333-147.831-117.333-247.654 0-176.73 143.269-320 320-320s320 143.27 320 320c0 99.823-45.705 188.971-117.333 247.654v115.013c0 111.93-90.735 202.667-202.667 202.667zM512 661.333c-49.681 0-96.715-11.321-138.667-31.523v74.19c0 76.584 62.084 138.667 138.667 138.667s138.667-62.083 138.667-138.667v-74.19c-41.954 20.203-88.986 31.523-138.667 31.523zM512 597.333c141.385 0 256-114.615 256-256s-114.615-256-256-256c-141.385 0-256 114.615-256 256s114.615 256 256 256z" />
<glyph unicode="&#xe908;" glyph-name="phone" d="M883.243 142.293h-0.085l-60.544-60.245c-19.115-18.987-44.757-34.773-76.117-37.76-77.184-7.211-257.195 2.005-446.293 190.037-176.555 175.531-210.475 328.661-214.741 404.096-2.176 38.144 15.915 70.4 38.827 93.184l66.987 66.603c51.925 51.627 137.429 42.368 180.949-15.659l53.803-71.893c35.371-47.275 32.256-113.28-9.771-155.051l-10.155-10.155c-0.469-1.237-1.536-5.333-0.341-13.099 2.688-17.408 17.195-54.229 78.165-114.816 60.928-60.587 98.048-75.136 115.712-77.867 7.936-1.195 12.075-0.085 13.44 0.384l17.408 17.323c37.376 37.12 94.72 44.075 140.971 18.901l81.493-44.288c69.845-37.931 87.467-132.779 30.293-189.696zM838.101 187.691c24.619 24.491 19.2 69.12-15.659 88.064l-81.536 44.331c-22.528 12.203-48.896 8.192-65.28-8.107l-19.456-19.328-0.085-0.128-0.128-0.128-0.299-0.256-2.133-1.92c-5.376-4.267-11.435-7.68-17.92-10.069-11.563-4.309-26.795-6.613-45.696-3.669-36.949 5.589-85.973 30.848-151.125 95.659-65.109 64.725-90.539 113.493-96.256 150.4-2.731 15.317-1.451 31.061 3.755 45.739 2.133 5.675 4.651 10.155 6.955 13.568 1.579 2.389 3.413 4.651 5.419 6.699l0.128 0.171h0.085c0 0.085 0.085 0.085 0.085 0.085l12.245 12.117c18.261 18.219 20.779 48.384 3.584 71.381l-53.803 71.851c-21.632 28.885-61.909 31.232-84.608 8.661l-66.944-66.603c-14.080-13.995-20.864-29.44-20.011-44.203 3.413-59.947 30.763-198.059 195.925-362.325 173.312-172.288 333.355-177.451 395.221-171.648 12.587 1.152 25.216 7.68 36.907 19.371l60.629 60.288z" />
<glyph unicode="&#xe909;" glyph-name="question-circle" d="M465.924 514.65c0 25.45 20.629 46.080 46.076 46.080 25.451 0 46.080-20.63 46.080-46.080 0-15.599-7.727-29.402-19.703-37.79-11.55-8.085-25.506-18.884-36.736-32.448-11.358-13.713-21.641-32.363-21.641-55.467 0-17.673 14.327-32 32-32s32 14.327 32 32c0 3.2 1.31 7.859 6.933 14.647 5.743 6.938 14.153 13.841 24.149 20.843 28.352 19.849 46.997 52.851 46.997 90.214 0 60.796-49.284 110.080-110.080 110.080s-110.077-49.284-110.077-110.080c0-17.673 14.327-32 32.002-32 17.673 0 32 14.327 32 32zM511.97 335.27c-17.673 0-32-14.327-32-32s14.327-32 32-32c17.673 0 32.030 14.327 32.030 32s-14.357 32-32.030 32zM512 874.667c-235.642 0-426.667-191.025-426.667-426.667 0-235.639 191.025-426.667 426.667-426.667 235.639 0 426.667 191.027 426.667 426.667 0 235.642-191.027 426.667-426.667 426.667zM149.333 448c0 200.295 162.371 362.667 362.667 362.667s362.667-162.371 362.667-362.667c0-200.294-162.372-362.667-362.667-362.667s-362.667 162.372-362.667 362.667z" />
<glyph unicode="&#xe90a;" glyph-name="search" d="M480 874.667c-217.961 0-394.667-176.652-394.667-394.581 0-217.924 176.706-394.577 394.667-394.577 97.429 0 186.615 35.294 255.458 93.798l148.518-148.531c12.493-12.497 32.755-12.501 45.252-0.004s12.501 32.759 0.004 45.257l-148.506 148.518c58.586 68.847 93.939 158.063 93.939 255.539 0 217.929-176.704 394.581-394.667 394.581zM149.333 480.085c0 182.569 148.037 330.581 330.667 330.581s330.667-148.013 330.667-330.581c0-182.566-148.036-330.577-330.667-330.577s-330.667 148.011-330.667 330.577z" />
<glyph unicode="&#xe90b;" glyph-name="sub" d="M853.333 395.947c0 37.547-30.417 67.413-67.593 67.413-10.982 0-21.12-2.56-30.413-7.68-11.831 21.333-33.796 34.133-58.3 34.133-10.982 0-21.12-2.56-30.413-7.68-11.831 21.333-33.796 34.133-58.3 34.133-7.603 0-15.206-0.853-21.965-3.413v39.253h50.692c40.555 0 72.661 33.28 72.661 74.24v174.080c0 40.96-32.951 74.24-72.661 74.24h-393.716c-40.554 0-72.66-33.28-72.66-74.24v-173.227c0-40.96 32.951-74.24 72.66-74.24h207.843v-203.093l-27.883 28.16c-22.812 23.040-59.142 26.453-86.178 8.533-16.053-11.093-26.191-28.16-29.571-46.933-2.535-18.773 2.535-38.4 15.208-53.76l121.661-148.48c38.020-46.933 94.63-73.387 153.771-73.387h76.041c47.313 0 92.092 18.773 125.888 52.907s52.382 79.36 52.382 127.147l0.845 151.893zM675.908 110.080h-76.041c-46.468 0-89.557 20.48-119.13 56.32l-121.662 148.48c-4.224 5.12-5.914 11.093-5.069 17.92s4.224 11.947 9.294 15.36c3.38 2.56 8.449 4.267 12.673 4.267 5.914 0 11.828-2.56 16.053-6.827l49.002-49.493c9.297-9.387 23.659-11.947 36.331-6.827s20.279 17.067 20.279 30.72v319.147c0 11.947 10.138 22.187 21.965 22.187 5.914 0 10.982-2.56 15.211-6.827 4.224-4.267 6.758-9.387 6.758-15.36v-219.307c0-12.8 10.138-23.040 22.81-23.040 12.676 0 22.814 10.24 22.814 23.040v29.867c0 11.947 10.138 22.187 21.965 22.187 11.831 0 21.969-10.24 21.969-22.187v-57.173c0-12.8 10.138-23.040 22.81-23.040 12.676 0 22.814 10.24 22.814 23.040v29.867c0 11.947 10.138 22.187 21.965 22.187 11.831 0 21.969-10.24 21.969-22.187v-57.173c0-12.8 10.138-23.040 22.81-23.040 12.676 0 22.814 10.24 22.814 23.040v29.867c0 11.947 10.138 22.187 21.965 22.187 11.831 0 21.969-10.24 21.969-22.187v-151.893c0-35.84-13.517-69.12-38.865-94.72-27.038-24.747-60.83-38.4-95.471-38.4zM243.327 604.16c-12.673 0-21.967 10.24-21.967 23.040v173.227c0 12.8 10.138 23.040 21.967 23.040h392.872c12.672 0 21.965-10.24 21.965-23.040v-173.227c0-12.8-10.138-23.040-21.965-23.040h-50.692v34.133c0 17.92-6.758 34.987-19.435 47.787-12.672 12.8-29.568 19.627-47.313 19.627-37.175 0-66.743-30.72-66.743-68.267v-34.133h-208.688v0.853zM390.056 781.352l-41.621-56.199-14.378 20.003c-7.567 10.478-20.432 11.43-28.756 0.952-8.324-9.525-9.081-25.718-0.756-36.196l29.513-40.006c3.784-5.715 9.081-8.573 15.135-8.573s11.351 2.857 15.135 8.573l56.756 76.202c7.568 10.478 7.568 26.671-0.757 36.196s-22.702 9.525-30.269-0.952z" />
<glyph unicode="&#xe90c;" glyph-name="user" d="M701.171 689.067c0-101.973-82.773-185.173-185.173-185.173l-0.427 0.427c-101.975 0-185.175 83.2-185.175 185.173s83.627 185.173 185.602 185.173c101.973 0 185.173-83.627 185.173-185.6zM637.171 689.493c0 66.56-54.187 121.173-121.173 121.173-66.56 0-121.175-54.613-121.175-121.173s54.615-121.173 121.175-121.173c66.56 0 121.173 54.613 121.173 121.173zM513.003 439.915c113.92 0 203.093-32 264.96-95.147v0.427c87.322-89.007 87.057-206.797 87.040-214.396v-0.218c-0.427-17.493-14.507-31.573-32-31.573h-0.427c-17.92 0.427-31.573 14.933-31.573 32.427 0 2.133 0 99.413-69.12 169.387-49.493 49.92-123.307 75.52-218.88 75.52-95.575 0-169.388-25.6-218.882-75.52-69.12-70.4-69.12-168.533-69.12-169.387 0-17.493-14.080-32.427-31.573-32.427-15.36-0.853-32.427 13.653-32.427 31.147v0.201c-0.017 7.155-0.298 125.389 87.040 214.413 61.867 63.147 151.040 95.147 264.962 95.147z" />
<glyph unicode="&#xe90d;" glyph-name="warning" d="M512 14.080l-0.427 0.427h-258.133c-88.107 0-149.333 34.133-179.115 84.864-29.739 50.688-29.739 120.832 12.885 197.76l133.163 239.787 125.397 225.28c45.099 81.323 106.709 119.168 166.229 119.168 59.563 0 121.131-37.845 166.229-119.168l125.44-225.707 133.12-239.787c42.667-76.928 42.539-147.072 12.715-197.803-29.824-50.688-91.093-84.821-178.944-84.821h-258.56zM517.248 78.080h253.312c59.776 0 103.467 18.773 123.776 53.291s15.531 81.92-13.525 134.272l-258.56 465.493c-30.848 55.637-69.504 86.229-110.251 86.229s-79.403-30.592-110.251-86.229l-125.44-225.28-133.12-239.787c-29.056-52.395-33.963-99.755-13.653-134.315 20.224-34.517 63.957-53.248 123.904-53.248h258.56c1.792 0 3.541-0.128 5.248-0.427zM480 576c0 17.664 14.336 32 32 32s32-14.336 32-32v-213.333c0-17.664-14.336-32-32-32s-32 14.336-32 32v213.333zM512.683 275.072c17.536 0 31.787-14.251 31.787-31.787 0-17.579-14.251-31.829-31.787-31.829s-31.787 14.251-31.787 31.829c0 17.536 14.251 31.787 31.787 31.787z" />
<glyph unicode="&#xe90e;" glyph-name="x" d="M265.373 649.373c-12.497 12.497-12.497 32.758 0 45.255s32.758 12.497 45.255 0l201.33-201.332 201.327 201.327c12.497 12.497 32.759 12.497 45.252 0 12.497-12.497 12.497-32.758 0-45.255l-201.323-201.324 201.323-201.327c12.497-12.497 12.497-32.759 0-45.252-12.493-12.497-32.755-12.497-45.252 0l-201.327 201.323-201.33-201.331c-12.497-12.497-32.758-12.497-45.255 0s-12.497 32.759 0 45.257l201.332 201.331-201.332 201.33z" />
<glyph unicode="&#xe90f;" glyph-name="plus" d="M480.009 704c0 17.673 14.327 32 32 32 17.677 0 32-14.327 32-32v-224.009h224.021c17.673 0 32-14.327 32-32 0-17.677-14.327-32-32-32h-224.021v-224.021c0-17.673-14.323-32-32-32-17.673 0-32 14.327-32 32v224.021h-224.009c-17.673 0-32 14.323-32 32 0 17.673 14.327 32 32 32h224.009v224.009z" />
<glyph unicode="&#xe910;" glyph-name="chevron-left" d="M623.966 737.294c11.989-12.497 11.989-32.758 0-45.255l-234.281-244.039 234.281-244.041c11.989-12.497 11.989-32.755 0-45.252-11.998-12.497-31.45-12.497-43.447 0l-256.001 266.667c-11.997 12.497-11.997 32.755 0 45.252l256.001 266.668c11.998 12.497 31.45 12.497 43.447 0z" />
<glyph unicode="&#xe911;" glyph-name="chevron-right" d="M400.036 737.294c-11.993-12.497-11.993-32.758 0-45.255l234.281-244.039-234.281-244.041c-11.993-12.497-11.993-32.755 0-45.252 11.997-12.497 31.447-12.497 43.445 0l256 266.667c11.998 12.497 11.998 32.755 0 45.252l-256 266.668c-11.998 12.497-31.448 12.497-43.445 0z" />
<glyph unicode="&#xe912;" glyph-name="upload" horiz-adv-x="1067" d="M530.086 821.333c-9.216 0-17.523-3.896-23.364-10.131l-196.675-196.551c-12.501-12.493-12.507-32.754-0.015-45.255s32.754-12.507 45.255-0.015l142.799 142.706v-434.755c0-17.673 14.323-32 32-32 17.673 0 32 14.327 32 32v434.579l142.63-142.531c12.501-12.492 32.759-12.486 45.252 0.016s12.484 32.762-0.013 45.255l-195.2 195.060c-5.867 7.098-14.741 11.621-24.67 11.621zM220.666 277.333c0 17.673-14.327 32-32 32s-32-14.327-32-32v-106.667c0-53.018 42.98-96 96-96h554.702c53.022 0 96 42.982 96 96v106.667c0 17.673-14.323 32-32 32-17.673 0-32-14.327-32-32v-106.667c0-17.673-14.323-32-32-32h-554.702c-17.673 0-32 14.327-32 32v106.667z" />
<glyph unicode="&#xe913;" glyph-name="flag" d="M256.96 820.32c0 16.966-13.754 30.72-30.72 30.72s-30.72-13.754-30.72-30.72v-757.762c0-16.966 13.754-30.72 30.72-30.72s30.72 13.754 30.72 30.72v245.76h215.038c0-50.897 41.263-92.16 92.16-92.16h215.040c10.424 0 20.14 5.288 25.801 14.041 5.657 8.753 6.492 19.78 2.216 29.286l-80.814 179.589c-3.609 8.016-3.609 17.195 0 25.211l80.814 179.588c4.276 9.506 3.441 20.533-2.216 29.286-5.661 8.754-15.376 14.040-25.801 14.040h-245.76c0 50.899-41.259 92.16-92.16 92.16h-184.318v40.96zM256.96 717.92h184.318c16.97 0 30.72-13.754 30.72-30.72v-317.442h-215.038v348.162zM533.438 625.76h198.25l-61.317-136.259c-10.822-24.052-10.822-51.589 0-75.641l61.317-136.262h-167.53c-16.966 0-30.72 13.754-30.72 30.72v317.442z" />
<glyph unicode="&#xe914;" glyph-name="user-multiple" horiz-adv-x="1067" d="M654.033 469.525c-35.618 0-68.476 11.806-94.882 31.714 12.463 18.010 22.327 37.955 29.052 59.292 16.926-16.698 40.175-27.004 65.83-27.004 51.767 0 93.734 41.967 93.734 93.736s-41.967 93.737-93.734 93.737c-25.655 0-48.905-10.307-65.83-27.005-6.724 21.337-16.589 41.28-29.052 59.29 26.402 19.91 59.264 31.715 94.882 31.715 87.113 0 157.734-70.621 157.734-157.737s-70.622-157.738-157.734-157.738zM630.285 397.265c10.684-10.577 20.228-21.564 28.757-32.747 57.562-1.109 98.893-15.262 128.905-34.496 31.39-20.117 52.335-47.044 66.419-74.739 14.17-27.861 21.171-56.107 24.576-77.662 1.69-10.701 2.462-19.541 2.812-25.579 0.175-3.012 0.239-5.312 0.269-6.771l0.009-0.892 0.004-0.649v-0.213l31.872-0.525c-31.59 0.546-31.868 0.538-31.872 0.525v-0.055c-0.26-17.634 13.798-32.162 31.441-32.465 17.668-0.307 32.243 13.769 32.55 31.437l-31.748 0.55c31.748-0.55 31.748-0.567 31.748-0.55v0.077l0.004 0.102v0.273l0.004 0.819c0 0.666-0.004 1.57-0.026 2.701-0.038 2.253-0.137 5.406-0.363 9.327-0.452 7.829-1.421 18.799-3.486 31.876-4.109 25.997-12.676 61.15-30.75 96.687-18.155 35.703-46.127 72.179-88.934 99.61-42.923 27.511-98.833 44.685-170.786 44.685-19.012 0-36.898-1.199-53.726-3.469 11.537-8.627 22.306-17.937 32.32-27.857zM218.953 627.262c0 87.116 70.621 157.737 157.736 157.737s157.737-70.621 157.737-157.737c0-87.115-70.622-157.737-157.737-157.737s-157.736 70.621-157.736 157.737zM376.689 720.998c-51.769 0-93.736-41.967-93.736-93.737s41.967-93.736 93.736-93.736c51.77 0 93.737 41.967 93.737 93.736s-41.967 93.737-93.737 93.737zM144.001 143.471c0.266-17.634-13.795-32.171-31.441-32.478-17.67-0.307-32.244 13.769-32.55 31.441l31.995 0.555c-31.995-0.555-31.995-0.572-31.995-0.555l-0.001 0.077-0.001 0.102-0.003 0.273-0.004 0.819c0 0.666 0.005 1.57 0.025 2.697 0.040 2.257 0.138 5.406 0.364 9.331 0.453 7.829 1.422 18.799 3.487 31.872 4.107 26.001 12.675 61.154 30.747 96.691 18.158 35.703 46.127 72.175 88.934 99.61 42.923 27.507 98.833 44.681 170.79 44.681 71.955 0 127.865-17.173 170.792-44.681 42.803-27.435 70.775-63.906 88.93-99.61 18.074-35.537 26.641-70.69 30.75-96.691 2.065-13.073 3.034-24.043 3.486-31.872 0.226-3.925 0.324-7.074 0.363-9.331 0.021-1.126 0.026-2.031 0.026-2.697l-0.004-0.819v-0.273l-0.004-0.102c0-0.017 0-0.077-31.748 0.474l31.748-0.55c-0.307-17.673-14.882-31.748-32.55-31.441-17.643 0.307-31.701 14.835-31.441 32.469v0.051c0.004 0.013 0.282 0.026 31.889-0.525l-31.889 0.525v0.213l-0.004 0.653-0.009 0.892c-0.026 1.459-0.094 3.755-0.269 6.767-0.35 6.037-1.122 14.882-2.812 25.583-3.405 21.551-10.406 49.796-24.576 77.662-14.084 27.695-35.029 54.622-66.419 74.739-31.275 20.041-74.842 34.564-136.258 34.564s-104.984-14.524-136.258-34.564c-31.389-20.117-52.335-47.044-66.42-74.739-14.17-27.866-21.173-56.111-24.577-77.662-1.69-10.701-2.461-19.546-2.81-25.583-0.174-3.012-0.242-5.308-0.268-6.767-0.013-0.73-0.015-1.25-0.015-1.545l0.001-0.256z" />
<glyph unicode="&#xe915;" glyph-name="home" d="M531.2 750.787c-11.379 8.533-27.021 8.533-38.4 0l-277.333-208c-8.058-6.043-12.8-15.526-12.8-25.599v-346.513c0-17.677 14.327-32 32-32h149.333v96c0 70.69 57.306 128 128 128s128-57.31 128-128v-96h149.333c17.673 0 32 14.323 32 32v346.513c0 10.074-4.74 19.556-12.8 25.599l-277.333 208zM454.4 801.987c34.133 25.6 81.067 25.6 115.2 0l277.333-208c24.175-18.13 38.4-46.583 38.4-76.799v-346.513c0-53.022-42.982-96-96-96h-181.333c-17.673 0-32 14.323-32 32v128c0 35.345-28.655 64-64 64s-64-28.655-64-64v-128c0-17.677-14.327-32-32-32h-181.333c-53.019 0-96 42.978-96 96v346.513c0 30.216 14.227 58.669 38.4 76.799l277.333 208z" />
<glyph unicode="&#xe916;" glyph-name="chevron-double-left" d="M801.673 737.294c11.994-12.497 11.994-32.758 0-45.255l-234.278-244.039 234.278-244.041c11.994-12.497 11.994-32.755 0-45.252-11.998-12.497-31.45-12.497-43.447 0l-256 266.667c-11.998 12.497-11.998 32.755 0 45.252l256 266.668c11.998 12.497 31.45 12.497 43.447 0zM503.006 737.294c11.994-12.497 11.994-32.758 0-45.255l-234.28-244.039 234.28-244.041c11.994-12.497 11.994-32.755 0-45.252-11.998-12.497-31.45-12.497-43.447 0l-256 266.667c-11.997 12.497-11.997 32.755 0 45.252l256 266.668c11.998 12.497 31.45 12.497 43.447 0z" />
<glyph unicode="&#xe917;" glyph-name="chevron-double-right" d="M222.328 737.294c-11.993-12.497-11.993-32.758 0-45.255l234.278-244.039-234.278-244.041c-11.993-12.497-11.993-32.755 0-45.252 11.997-12.497 31.449-12.497 43.446 0l256.001 266.667c11.998 12.497 11.998 32.755 0 45.252l-256.001 266.668c-11.997 12.497-31.449 12.497-43.446 0zM520.994 737.294c-11.994-12.497-11.994-32.758 0-45.255l234.278-244.039-234.278-244.041c-11.994-12.497-11.994-32.755 0-45.252 11.998-12.497 31.45-12.497 43.447 0l256 266.667c11.998 12.497 11.998 32.755 0 45.252l-256 266.668c-11.998 12.497-31.45 12.497-43.447 0z" />
<glyph unicode="&#xe918;" glyph-name="x-circle" d="M374.768 585.211c-12.497-12.497-12.497-32.758 0-45.255l91.954-91.956-91.954-91.955c-12.497-12.497-12.497-32.759 0-45.257s32.758-12.497 45.255 0l91.956 91.955 91.951-91.951c12.497-12.497 32.759-12.497 45.257 0s12.497 32.759 0 45.257l-91.951 91.951 91.951 91.953c12.497 12.497 12.497 32.758 0 45.255s-32.759 12.497-45.257 0l-91.951-91.951-91.956 91.954c-12.497 12.497-32.758 12.497-45.255 0zM512 874.667c-235.642 0-426.667-191.025-426.667-426.667 0-235.639 191.025-426.667 426.667-426.667 235.639 0 426.667 191.027 426.667 426.667 0 235.642-191.027 426.667-426.667 426.667zM149.333 448c0 200.295 162.371 362.667 362.667 362.667s362.667-162.371 362.667-362.667c0-200.294-162.372-362.667-362.667-362.667s-362.667 162.372-362.667 362.667z" />
</font>
</defs>
</svg>
